Скачать через торрент Человек на Луне First Man Фильм бесплатно в хорошем качестве torrent

Скачивайте на UnionPeer.org фильмы через торрент без регистрации. Новинки кино в хорошем качестве через торрент. На UnionPeer.org можно скачать через торрент фильмы 2014 и 2015 годов. Самые новые фильмы.

Скачать торрент Человек на Луне First Man бесплатно через .torrent фильм мультфильм сериал

Статистика раздачи
Размер:  4.9 GB   |    Зарегистрирован:  1 месяц 4 дня   |    .torrent скачан:  265 раз   |   
Раздают:  1  
   
загрузка...
 
Автор Сообщение

Galfimbul

avatar Galfimbul


Человек на Луне /First Man

Год выхода: 2018
Жанр: Драма, биография, история
Режиссер: Дэмьен Шазелл
В ролях: Клер Фой, Райан Гослинг, Пабло Шрайбер, Кристофер Эбботт, Итэн Эмбри, Киаран Хайндс, Джейсон Кларк, Кайл Чандлер, Кори Столл, Шей Уигэм



О фильме: Судьба любит смельчаков, а Нил Армстронг однозначно принадлежит к их числу. Весь мир знает его имя, но мало кому известно, какой ценой астронавту дался маленький шаг, ставший огромным скачком для всего человечества.

Страна: США
Студия: Amblin Entertainment, DreamWorks SKG
Продолжительность: 02:21:00
Перевод: Дублированный | iTunes

Качество: WEB-DL 1080p
Видео: MPEG-4 AVC, 1916x796, 4594 Kbit/s, 23.976 fps
Звук:
Аудио: 48 kHz, AC3, 5.1, 384 Kbps | iTunes | RUS |
Субтитры: Русские (форсированные [хардсаб])

General
Unique ID : 163788633708741637535561849641967936902 (0x7B388B1DA364627F6CEBEC8871C9E586)
Complete name : D:Video111First.Man.2018.WEB-DL.1080p.seleZen.mkv
Format : Matroska
Format version : Version 4
File size : 4.90 GiB
Duration : 2 h 21 min
Overall bit rate : 4 980 kb/s
Movie name : First Man 2018 from seleZen
Encoded date : UTC 2018-12-12 20:48:27
Writing application : mkvmerge v29.0.0 ('Like It Or Not') 64-bit
Writing library : libebml v1.3.6 + libmatroska v1.4.9

Video
ID : 1
Format : AVC
Format/Info : Advanced Video Codec
Format profile : High@L4
Format settings : CABAC / 5 Ref Frames
Format settings, CABAC : Yes
Format settings, ReFrames : 5 frames
Codec ID : V_MPEG4/ISO/AVC
Duration : 2 h 21 min
Bit rate : 4 594 kb/s
Width : 1 916 pixels
Height : 796 pixels
Display aspect ratio : 2.40:1
Frame rate mode : Constant
Frame rate : 23.976 (23976/1000) FPS
Color space : YUV
Chroma subsampling : 4:2:0
Bit depth : 8 bits
Scan type : Progressive
Bits/(Pixel*Frame) : 0.126
Stream size : 4.52 GiB (92%)
Language : English
Default : Yes
Forced : No
Color range : Limited
Color primaries : BT.709
Transfer characteristics : BT.709
Matrix coefficients : BT.709

Audio
ID : 2
Format : AC-3
Format/Info : Audio Coding 3
Commercial name : Dolby Digital
Codec ID : A_AC3
Duration : 2 h 21 min
Bit rate mode : Constant
Bit rate : 384 kb/s
Channel(s) : 6 channels
Channel layout : L R C LFE Ls Rs
Sampling rate : 48.0 kHz
Frame rate : 31.250 FPS (1536 SPF)
Bit depth : 16 bits
Compression mode : Lossy
Stream size : 387 MiB (8%)
Title : iTunes
Language : Russian
Service kind : Complete Main
Default : Yes
Forced : Yes

Menu
00:00:00.000 : en:1
00:07:21.441 : en:2
00:13:36.983 : en:3
00:19:54.193 : en:4
00:26:00.726 : en:5
00:31:31.139 : en:6
00:40:18.249 : en:7
00:49:58.704 : en:8
01:00:03.934 : en:9
01:05:43.398 : en:10
01:11:06.721 : en:11
01:15:13.968 : en:12
01:21:33.889 : en:13
01:30:36.306 : en:14
01:39:01.728 : en:15
01:48:59.492 : en:16
01:54:45.421 : en:17
02:00:15.918 : en:18
02:09:56.707 : en:19
02:14:03.745 : en:20
Источник http://BlaTor.org

Трекер:  [ 13-Дек-2018 03:10 ]

  

Скачать .torrent

Размер .torrent файла 6 KB


Размер: 4.9 GB
Хэш (hash) релиза: 5118b262d8fc5e4d1a6ee3d6f95d565d5ac2b5c6
Подписка на обновления:

Торренты, похожие на Человек на Луне First Man скачать торрент

Форум Название Автор Размер S L Добавлен
Зарубежные фильмы 2016-2018 (Новинки зарубежного кино) ·%· Человек на Луне / First Man (2018) BDRip-HEVC 1080p от M@kSIMus | IMAX Edition | iTunes Galfimbul 80205518817.47 GB 0 0 1547620209

09:30

16-Янв-19

Зарубежные фильмы 2016-2018 (Новинки зарубежного кино) ·%· Человек на Луне / First Man (2018) BDRip от ExKinoRay | IMAX Edition | iTunes Galfimbul 15693283521.46 GB 0 0 1547505021

01:30

15-Янв-19

Зарубежные фильмы 2016-2018 (Новинки зарубежного кино) ·%· Человек на Луне / First Man (2018) BDRip от ExKinoRay | IMAX Edition | iTunes Galfimbul 22807126582.12 GB 0 0 1547505011

01:30

15-Янв-19

Зарубежные фильмы 2016-2018 (Новинки зарубежного кино) ·%· Человек на Луне / First Man (2018) BDRip 720p от селезень | IMAX Edition | iTunes Galfimbul 77441522917.21 GB 0 0 1547366483

11:01

13-Янв-19

Зарубежные фильмы 2016-2018 (Новинки зарубежного кино) ·%· Человек на Луне / First Man (2018) BDRip 1080p от селезень | IMAX Edition | iTunes Galfimbul 1534006155814.29 GB 0 0 1547330415

01:00

13-Янв-19

Зарубежные фильмы 2016-2018 (Новинки зарубежного кино) ·%· Человек на Луне / First Man (2018) BDRemux 1080p от селезень | iTunes Galfimbul 3452120778332.15 GB 0 0 1547287827

13:10

12-Янв-19

Зарубежные фильмы 2016-2018 (Новинки зарубежного кино) ·%· Человек на Луне / First Man (2018) WEB-DLRip от ExKinoRay | IMAX Edition | iTunes Galfimbul 23268215652.17 GB 0 0 1545720039

09:40

25-Дек-18

Зарубежные фильмы 2016-2018 (Новинки зарубежного кино) ·%· Человек на Луне / First Man (2018) WEB-DLRip от Scarabey | iTunes Galfimbul 838821888800 MB 0 0 1545068422

20:40

17-Дек-18

Зарубежные фильмы 2016-2018 (Новинки зарубежного кино) ·%· Человек на Луне / First Man (2018) WEB-DLRip от Scarabey | iTunes Galfimbul 23366778882.18 GB 0 0 1544812810

21:40

14-Дек-18

Зарубежные фильмы 2016-2018 (Новинки зарубежного кино) ·%· Человек на Луне / First Man (2018) WEB-DLRip от GeneralFilm | iTunes Galfimbul 15631216641.46 GB 0 0 1544716223

18:50

13-Дек-18

Зарубежные фильмы 2016-2018 (Новинки зарубежного кино) ·%· Человек на Луне / First Man (2018) WEB-DLRip-AVC | iTunes Galfimbul 780531088744 MB 0 0 1544699414

14:10

13-Дек-18

Зарубежные фильмы 2016-2018 (Новинки зарубежного кино) ·%· Человек на Луне / First Man (2018) WEB-DLRip-AVC от OlLanDGroup | iTunes Galfimbul 23231034632.16 GB 0 0 1544689827

11:30

13-Дек-18

Зарубежные фильмы 2016-2018 (Новинки зарубежного кино) ·%· Человек на Луне / First Man (2018) WEB-DLRip от MegaPeer | iTunes Galfimbul 15674511361.46 GB 0 0 1544664615

04:30

13-Дек-18

Зарубежные фильмы 2016-2018 (Новинки зарубежного кино) ·%· Человек на Луне / First Man (2018) WEB-DLRip от MegaPeer | iTunes Galfimbul 23431393282.18 GB 0 0 1544658013

02:40

13-Дек-18

Зарубежные фильмы 2016-2018 (Новинки зарубежного кино) ·%· Человек на Луне / First Man (2018) WEB-DL 720p от селезень | iTunes Galfimbul 49395462964.6 GB 0 0 1544655026

01:50

13-Дек-18

Документальные фильмы и телепередачи ·· Нейл Армстронг. Первый человек на Луне / Neil Armstrong. First Man on the Moon (Кристофер Райли) [2012, документальный, WEBRip] Galfimbul 507242496484 MB 0 0 1364135451

17:30

24-Мар-13

Еще никто не оставлял запись к записи скачать торрент Человек на Луне First Man . Будь первым!

!Обратная связь
Johanna Braddy | 자세히 읽기 | Countdown