Скачать через торрент Хищник The Predator Фильм бесплатно в хорошем качестве torrent

Скачивайте на UnionPeer.org фильмы через торрент без регистрации. Новинки кино в хорошем качестве через торрент. На UnionPeer.org можно скачать через торрент фильмы 2014 и 2015 годов. Самые новые фильмы.

Скачать торрент Хищник The Predator бесплатно через .torrent фильм мультфильм сериал

Статистика раздачи
Размер:  6.06 GB   |    Зарегистрирован:  19 дней   |    .torrent скачан:  359 раз   |   
Раздают:  1  
   
загрузка...
 
Автор Сообщение

Galfimbul

avatar Galfimbul


«You'll never see him coming»

Хищник /The Predator

Год выхода: 2018
Жанр: Ужасы, фантастика, боевик, триллер, приключения
Режиссер: Шейн Блэк
В ролях: Бойд Холбрук, Треванте Роудс, Джейкоб Трамбле, Кигэн-Майкл Ки, Оливия Манн, Стерлинг К. Браун, Томас Джейн, Элфи Оуэн-Аллен, Августо Агилера, Джейк Бьюзи

О фильме:
Главный герой, бывший морпех, обнаруживает злобную инопланетную расу на Земле, но никто не верит ему, что эти твари существуют. Его сын-аутист, которого все обижают в школе, становится ключевой фигурой в схватке с Хищниками, поскольку мальчик умеет невероятно быстро учить языки и, судя по всему, сможет понять пришельцев.



Страна: США, Канада
Студия: 20th Century Fox Film Corporation, Canada Film Capital, Dark Castle Entertainment, Davis Entertainment, TSG Entertainment
Продолжительность: 01:46:58
Перевод: Профессиональный (многоголосый, закадровый) | HDRezka Studio

Файл
Качество: WEB-DL 1080p | Amazon
Формат: MKV
Кодек: MPEG-4 AVC
Видео: 1920x800 (2,40:1), 23.976 fps, MPEG-4 AVC ~ 7278 Kbps avg, 0.198 bit/pixel
Аудио: AC3, 48 kHz, 2 ch, ~192.00 kbps avg | русский | HDRezka Studio
Аудио: E-AC3, 48 kHz, 6 ch, ~640.00 kbps avg | английский | Оригинал

Субтитры: Английские (Full, SDH)
Общее
Уникальный идентификатор : 22570191886626855836061656112656250763 (0x10FADC600B0B60C26AD1DFB9F20B778B)
Полное имя : The.Predator.2018.1080p.AMZN.WEB-DL.Rus.Eng.mkv
Формат : Matroska
Версия формата : Version 4 / Version 2
Размер файла : 6,06 Гбайт
Продолжительность : 1 ч. 46 м.
Общий поток : 8112 Кбит/сек
Название фильма : Хищник / The Predator (2018)
Дата кодирования : UTC 2018-11-27 09:38:56
Программа кодирования : mkvmerge v27.0.0 ('Metropolis') 64-bit
Библиотека кодирования : libebml v1.3.6 + libmatroska v1.4.9

Видео
Идентификатор : 1
Формат : AVC
Формат/Информация : Advanced Video Codec
Профиль формата : High@L4
Настройки формата : CABAC / 4 Ref Frames
Параметр CABAC формата : Да
Параметр RefFrames формата : 4 кадра
Идентификатор кодека : V_MPEG4/ISO/AVC
Продолжительность : 1 ч. 46 м.
Битрейт : 7278 Кбит/сек
Ширина : 1920 пикселей
Высота : 800 пикселей
Соотношение сторон : 2,40:1
Режим частоты кадров : Постоянный
Частота кадров : 23,976 (24000/1001) кадра/сек
Цветовое пространство : YUV
Субдискретизация насыщенности : 4:2:0
Битовая глубина : 8 бит
Тип развёртки : Прогрессивная
Бит/(Пиксели*Кадры) : 0.198
Размер потока : 5,44 Гбайт (90%)
Заголовок : The.Predator.2018.1080p.AMZN.WEB-DL.Rus.Eng
Default : Да
Forced : Нет
Цветовой диапазон : Limited
Основные цвета : BT.709
Характеристики трансфера : BT.709
Коэффициенты матрицы : BT.709

Аудио #1
Идентификатор : 2
Формат : AC-3
Формат/Информация : Audio Coding 3
Идентификатор кодека : A_AC3
Продолжительность : 1 ч. 46 м.
Вид битрейта : Постоянный
Битрейт : 192 Кбит/сек
Каналы : 2 канала
Расположение каналов : Front: L R
Частота : 48,0 КГц
Частота кадров : 31,250 кадров/сек (1536 SPF)
Битовая глубина : 16 бит
Метод сжатия : С потерями
Размер потока : 147 Мбайт (2%)
Заголовок : MVO | HDRezka Studio
Язык : Russian
Default : Да
Forced : Нет

Аудио #2
Идентификатор : 3
Формат : E-AC-3
Формат/Информация : Enhanced Audio Coding 3
Идентификатор кодека : A_EAC3
Продолжительность : 1 ч. 46 м.
Вид битрейта : Постоянный
Битрейт : 640 Кбит/сек
Каналы : 6 каналов
Расположение каналов : Front: L C R, Side: L R, LFE
Частота : 48,0 КГц
Частота кадров : 187,500 кадров/сек (256 SPF)
Метод сжатия : С потерями
Размер потока : 490 Мбайт (8%)
Язык : English
Default : Нет
Forced : Нет

Текст #1
Идентификатор : 4
Формат : UTF-8
Идентификатор кодека : S_TEXT/UTF8
Идентификатор кодека/Информация : UTF-8 Plain Text
Продолжительность : 1 ч. 38 м.
Битрейт : 49 бит/сек
ElementCount : 1366
Размер потока : 35,6 Кбайт (0%)
Заголовок : Full
Язык : English
Default : Нет
Forced : Нет

Текст #2
Идентификатор : 5
Формат : UTF-8
Идентификатор кодека : S_TEXT/UTF8
Идентификатор кодека/Информация : UTF-8 Plain Text
Продолжительность : 1 ч. 45 м.
Битрейт : 54 бит/сек
ElementCount : 1706
Размер потока : 42,2 Кбайт (0%)
Заголовок : SDH
Язык : English
Default : Нет
Forced : Нет

Меню
00:00:00.000 : en:Chapter 01
00:02:01.705 : en:Chapter 02
00:08:33.930 : en:Chapter 03
00:09:46.334 : en:Chapter 04
00:13:48.659 : en:Chapter 05
00:16:10.174 : en:Chapter 06
00:17:37.427 : en:Chapter 07
00:20:22.466 : en:Chapter 08
00:25:02.954 : en:Chapter 09
00:27:37.273 : en:Chapter 10
00:31:11.070 : en:Chapter 11
00:36:24.341 : en:Chapter 12
00:38:01.645 : en:Chapter 13
00:39:43.538 : en:Chapter 14
00:44:35.704 : en:Chapter 15
00:49:16.901 : en:Chapter 16
00:53:19.602 : en:Chapter 17
00:58:35.500 : en:Chapter 18
00:59:59.500 : en:Chapter 19
01:03:17.280 : en:Chapter 20
01:06:37.812 : en:Chapter 21
01:09:52.006 : en:Chapter 22
01:12:27.619 : en:Chapter 23
01:15:56.619 : en:Chapter 24
01:18:53.670 : en:Chapter 25
01:21:25.613 : en:Chapter 26
01:23:09.924 : en:Chapter 27
01:27:09.787 : en:Chapter 28
01:30:56.221 : en:Chapter 29
01:32:15.799 : en:Chapter 30
01:35:09.389 : en:Chapter 31
01:40:01.180 : en:Chapter 32
Источник http://BlaTor.org

Трекер:  [ 27-Ноя-2018 17:00 ]

  

Скачать .torrent

Размер .torrent файла 15 KB


Размер: 6.06 GB
Хэш (hash) релиза: d83deeada7a8328c3ce3aadff76f290823d9a449
Подписка на обновления:

Торренты, похожие на Хищник The Predator скачать торрент

Форум Название Автор Размер S L Добавлен
Зарубежные фильмы 2016-2018 (Новинки зарубежного кино) ·%· Хищник / The Predator (2018) BDRemux 1080p | D, A Galfimbul 3020063352728.13 GB 0 0 1544968813

17:00

16-Дек-18

Зарубежные фильмы 2016-2018 (Новинки зарубежного кино) ·%· Хищник / The Predator (2018) BDRip-AVC от OlLanDGroup | iTunes Galfimbul 779220820743 MB 0 0 1544595018

09:10

12-Дек-18

Зарубежные фильмы 2016-2018 (Новинки зарубежного кино) ·%· Хищник / The Predator (2018) BDRip 1080p от qqss44 & MegaPeer | iTunes Galfimbul 81179160897.56 GB 0 0 1544578807

04:40

12-Дек-18

Зарубежные фильмы 2016-2018 (Новинки зарубежного кино) ·%· Хищник / The Predator (2018) BDRip от ExKinoRay | iTunes Galfimbul 22938705922.14 GB 0 0 1544560211

23:30

11-Дек-18

Зарубежные фильмы 2016-2018 (Новинки зарубежного кино) ·%· Хищник / The Predator (2018) BDRip от ExKinoRay | iTunes Galfimbul 15183953761.41 GB 0 0 1544521808

12:50

11-Дек-18

Зарубежные фильмы 2016-2018 (Новинки зарубежного кино) ·%· Хищник / The Predator (2018) BDRip 720p от HELLYWOOD | iTunes Galfimbul 46450935234.33 GB 0 0 1544502023

07:20

11-Дек-18

Зарубежные фильмы 2016-2018 (Новинки зарубежного кино) ·%· Хищник / The Predator (2018) BDRemux 1080p от селезень | D, P | iTunes Galfimbul 2613292915224.34 GB 0 0 1544457054

18:50

10-Дек-18

Зарубежные фильмы 2016-2018 (Новинки зарубежного кино) ·%· Хищник / The Predator (2018) BDRip 1080p от селезень | D, P | iTunes Galfimbul 1274451263411.87 GB 0 0 1544389902

00:11

10-Дек-18

Зарубежные фильмы 2016-2018 (Новинки зарубежного кино) ·%· Хищник / The Predator (2018) HDRip-AVC от qusi555 | iTunes Galfimbul 31204687992.91 GB 0 0 1544347811

12:30

9-Дек-18

Зарубежные фильмы 2016-2018 (Новинки зарубежного кино) ·%· Хищник / The Predator (2018) HDRip | КПК | iTunes Galfimbul 426149580406 MB 0 0 1544344210

11:30

9-Дек-18

Зарубежные фильмы 2016-2018 (Новинки зарубежного кино) ·%· Хищник / The Predator (2018) HDRip-AVC от qusi555 | iTunes Galfimbul 15750738951.47 GB 0 0 1544337627

09:40

9-Дек-18

Зарубежные фильмы 2016-2018 (Новинки зарубежного кино) ·%· Хищник / The Predator (2018) BDRip 720p от селезень | D, P | iTunes Galfimbul 69941982866.51 GB 0 0 1544284836

19:00

8-Дек-18

Зарубежные фильмы 2016-2018 (Новинки зарубежного кино) ·%· Хищник / The Predator (2018) WEB-DLRip от MegaPeer | iTunes Galfimbul 791610757755 MB 0 0 1544254816

10:40

8-Дек-18

Зарубежные фильмы 2016-2018 (Новинки зарубежного кино) ·%· Хищник / The Predator (2018) HDRip | iTunes Galfimbul 14672834561.37 GB 0 0 1544133610

01:00

7-Дек-18

Зарубежные фильмы 2016-2018 (Новинки зарубежного кино) ·%· Хищник / The Predator (2018) WEB-DL 720p от Scarabey | HDRezka Studio Galfimbul 33991958453.17 GB 0 0 1543654264

11:51

1-Дек-18

Зарубежные фильмы 2016-2018 (Новинки зарубежного кино) ·%· Хищник / The Predator (2018) WEB-DLRip от GeneralFilm | HDRezka Studio Galfimbul 782821376747 MB 0 0 1543461081

06:11

29-Ноя-18

Зарубежные фильмы 2016-2018 (Новинки зарубежного кино) ·%· Хищник / The Predator (2018) WEB-DL 1080p от OlLanDGroup | HDRezka Studio Galfimbul 41411348663.86 GB 0 0 1543407664

15:21

28-Ноя-18

Зарубежные фильмы 2016-2018 (Новинки зарубежного кино) ·%· Хищник / The Predator (2018) WEB-DLRip от MegaPeer | HDRezka Studio Galfimbul 15694991361.46 GB 0 0 1543396898

12:21

28-Ноя-18

Зарубежные фильмы 2016-2018 (Новинки зарубежного кино) ·%· Хищник / The Predator (2018) WEB-DLRip-AVC от OlLanDGroup | HDRezka Studio Galfimbul 18186009041.69 GB 0 0 1543372242

05:30

28-Ноя-18

Еще никто не оставлял запись к записи скачать торрент Хищник The Predator . Будь первым!

!Обратная связь
Antares +18 Movie | Erotik film - Hot movie full Hd | June 19, 2018 | J.P. Valenti