Скачать через торрент Ф.О.Т.О.Г.Р.А.Ф. Фильм бесплатно в хорошем качестве torrent

Скачивайте на UnionPeer.org фильмы через торрент без регистрации. Новинки кино в хорошем качестве через торрент. На UnionPeer.org можно скачать через торрент фильмы 2014 и 2015 годов. Самые новые фильмы.

Скачать торрент Ф.О.Т.О.Г.Р.А.Ф. бесплатно через .torrent фильм мультфильм сериал

Статистика раздачи
Размер:  355 MB   |    Зарегистрирован:  28 дней   |    .torrent скачан:  224 раза   |   
Раздают:  1  
   
загрузка...
 
Автор Сообщение

Galfimbul

avatar Galfimbul


Название: Ф.О.Т.О.Г.Р.А.Ф.
Год выхода: 2018
Жанр: боевик, драма, фантастика, короткометражка
Режиссер: Максим Фащенко
В ролях: Александр Родин, Юрий Херувимов

О фильме:
Агент миротворческих сил по прозвищу Фотограф прибывает в Зону отчуждения, чтобы предотвратить катастрофу глобального масштаба.



Страна: Россия
Продолжительность: 00:36:03
Перевод: Оригинал

Файл
Кодек: AVC
Качество: WEBRip 1080p
Видео: 1920х1012, ~1247 kb/s, 25.000 FPS
Звук: AAC, 2 ch, ~128 kb/s
General
Unique ID : 290378995806888375825959393387451303892 (0xDA74F5D7D48AFB3DF258B3672088C7D4)
Complete name : C:UsersDoMiNoDesktop750Ф.О.Т.О.Г.Р.А.Ф.- по игре -S.T.A.L.K.E.R.-.mkv
Format : Matroska
Format version : Version 4
File size : 355 MiB
Duration : 36 min 3 s
Overall bit rate : 1 377 kb/s
Encoded date : UTC 2018-11-18 06:35:36
Writing application : mkvmerge v28.2.0 ('The Awakening') 64-bit
Writing library : libebml v1.3.6 + libmatroska v1.4.9

Video
ID : 1
Format : AVC
Format/Info : Advanced Video Codec
Format profile : High@L4
Format settings : CABAC / 3 Ref Frames
Format settings, CABAC : Yes
Format settings, ReFrames : 3 frames
Codec ID : V_MPEG4/ISO/AVC
Duration : 36 min 3 s
Bit rate : 1 247 kb/s
Width : 1 920 pixels
Height : 1 012 pixels
Display aspect ratio : 1.897
Frame rate mode : Constant
Frame rate : 25.000 FPS
Color space : YUV
Chroma subsampling : 4:2:0
Bit depth : 8 bits
Scan type : Progressive
Bits/(Pixel*Frame) : 0.026
Stream size : 322 MiB (91%)
Title : Ф.О.Т.О.Г.Р.А.Ф. (2018) WEBRip 1080p
Language : Russian
Default : Yes
Forced : No
Color range : Limited
Color primaries : BT.709
Transfer characteristics : BT.709
Matrix coefficients : BT.709

Audio
ID : 2
Format : AAC LC
Format/Info : Advanced Audio Codec Low Complexity
Codec ID : A_AAC-2
Duration : 36 min 3 s
Bit rate : 128 kb/s
Channel(s) : 2 channels
Channel layout : L R
Sampling rate : 44.1 kHz
Frame rate : 43.066 FPS (1024 SPF)
Compression mode : Lossy
Stream size : 33.0 MiB (9%)
Title : RUS
Language : Russian
Default : Yes
Forced : No
Источник http://BlaTor.org

Трекер:  [ 18-Ноя-2018 10:10 ]

  

Скачать .torrent

Размер .torrent файла 14 KB


Размер: 355 MB
Хэш (hash) релиза: 839b54ea43f5d17594a5113798836b0a49be29da
Подписка на обновления:

Торренты, похожие на Ф.О.Т.О.Г.Р.А.Ф. скачать торрент

Форум Название Автор Размер S L Добавлен
Российские фильмы 2016-2018 (Новинки русского кино) ·%· Ф.О.Т.О.Г.Р.А.Ф. (2018) WEBRip от ExKinoRay Galfimbul 334643200319 MB 0 0 1543948920

21:42

4-Дек-18

Российские фильмы 2016-2018 (Новинки русского кино) ·%· Ф.О.Т.О.Г.Р.А.Ф. (2018) WEBRip 720p Galfimbul 244213620233 MB 0 0 1542515451

07:30

18-Ноя-18

Еще никто не оставлял запись к записи скачать торрент Ф.О.Т.О.Г.Р.А.Ф. . Будь первым!

!Обратная связь
Holby City Season 20 Episode 50 s20e50 | School: Education and Mini Society | Ray Anthony & His Orchestra - Dancing Over The Waves