Скачать через торрент Светлана Фильм бесплатно в хорошем качестве torrent

Скачивайте на UnionPeer.org фильмы через торрент без регистрации. Новинки кино в хорошем качестве через торрент. На UnionPeer.org можно скачать через торрент фильмы 2014 и 2015 годов. Самые новые фильмы.

Скачать торрент Светлана бесплатно через .torrent фильм мультфильм сериал

Статистика раздачи
Размер:  5.02 GB   |    Зарегистрирован:  1 месяц 15 дней   |    .torrent скачан:  570 раз   |   
Раздают:  1  
   
загрузка...
 
Автор Сообщение

aleksan55

avatar aleksan55


Светлана (Дочь Сталина)

Год выпуска: 2018
Страна: Россия | Russian World Studios | Птицафильм
Жанр: биография, драма
Продолжительность: 00:47:00
Субтитры: нет
Режиссёр: Евгений Звездаков

В ролях:Виктория Романенко, Сергей Колтаков, Павел Трубинер, Сергей Колос, Сергей Лосев, Роберт Студеновский, Семён Стругачёв, Маша Полиенко, Алёна Савастова, Кирилл Иванов, Даниил Кокин, Илья Катунцев, Карен Галстян, Елизавета Александрова, Елизавета Нилова
Описание:
Драма «кремлевской принцессы» Светланы Аллилуевой, дочери всесильного вождя всех народов. Она была лишена материнской любви и ласки, зато в избытке хлебнула отцовской строгости. Она трижды меняла имя и вероисповедание, четырежды была замужем, родила троих детей, которые отреклись от нее, дважды эмигрировала из СССР. Несколько раз уезжала и возвращалась в США. Жила в Грузии, в Швейцарии, в Англии, во Франции. Написала несколько книг. Но до конца жизни осталась для всех дочерью Сталина…

Качество: SATRip-AVC
Формат: MKV
Видео кодек: H.264
Аудио кодек: AC3
Видео: MPEG4 Video (H264), 720х400, 25fps,1700 Kbps,bit/pixel 0.236
Аудио : AC3 48000Hz, stereo, 192 kbps,2 ch
Общее
Уникальный идентификатор : 250046513281004062889670316208612081409 (0xBC1D34ED0701B5E79780673DEE867F01)
Полное имя : D:\Светлана\01 серия_Светлана_rip by_Aleksan55.mkv
Формат : Matroska
Версия формата : Version 2
Размер файла : 648 Мбайт
Продолжительность : 47 м. 48 с.
Общий поток : 1894 Кбит/сек
Дата кодирования : UTC 2018-10-15 12:43:05
Программа кодирования : mkvmerge v7.8.0 ('River Man') 32bit built on Apr 3 2015 12:11:22
Библиотека кодирования : libebml v1.3.1 + libmatroska v1.4.2

Видео
Идентификатор : 1
Формат : AVC
Формат/Информация : Advanced Video Codec
Профиль формата : High@L4.1
Параметр CABAC формата : Да
Параметр ReFrames формата : 14 кадров
Идентификатор кодека : V_MPEG4/ISO/AVC
Продолжительность : 47 м. 48 с.
Битрейт : 1700 Кбит/сек
Ширина : 720 пикселей
Высота : 400 пикселей
Соотношение сторон : 16:9
Режим частоты кадров : Постоянный
Частота кадров : 25,000 кадров/сек
Цветовое пространство : YUV
Субдискретизация насыщенности : 4:2:0
Битовая глубина : 8 бит
Тип развёртки : Прогрессивная
Бит/(Пиксели*Кадры) : 0.236
Размер потока : 569 Мбайт (88%)
Библиотека кодирования : x264 core 146 r2538 121396c
Настройки программы : cabac=1 / ref=14 / deblock=1:-1:-1 / analyse=0x3:0x133 / me=umh / subme=9 / psy=1 / psy_rd=0.90:0.00 / mixed_ref=0 / me_range=32 / chroma_me=1 / trellis=1 / 8x8dct=1 / cqm=0 / deadzone=21,11 / fast_pskip=0 / chroma_qp_offset=-2 / threads=12 / lookahead_threads=1 / sliced_threads=0 / nr=0 / decimate=0 / interlaced=0 / bluray_compat=0 / constrained_intra=0 / bframes=14 / b_pyramid=2 / b_adapt=1 / b_bias=0 / direct=3 / weightb=1 / open_gop=0 / weightp=2 / keyint=250 / keyint_min=25 / scenecut=40 / intra_refresh=0 / rc_lookahead=40 / rc=2pass / mbtree=1 / bitrate=1700 / ratetol=1.0 / qcomp=0.60 / qpmin=0 / qpmax=39 / qpstep=4 / cplxblur=20.0 / qblur=0.5 / ip_ratio=1.40 / aq=1:1.00
Default : Да
Forced : Нет
Цветовой диапазон : Limited
Основные цвета : BT.601 PAL
Характеристики трансфера : BT.470 System B, BT.470 System G
Коэффициенты матрицы : BT.601

Аудио
Идентификатор : 2
Формат : AC-3
Формат/Информация : Audio Coding 3
Расширение режима : CM (complete main)
Параметр Endianness формата : Big
Идентификатор кодека : A_AC3
Продолжительность : 47 м. 48 с.
Вид битрейта : Постоянный
Битрейт : 192 Кбит/сек
Каналы : 2 канала
Расположение каналов : Front: L R
Частота : 48,0 КГц
Частота кадров : 31,250 кадров/сек (1536 spf)
Битовая глубина : 16 бит
Метод сжатия : С потерями
Размер потока : 65,7 Мбайт (10%)
Default : Да
Forced : Нет
Внимание! Раздача ведётся путём добавления новых серий; при каждом добавлении создаётся новый торрент. 
Чтобы начать докачку новой серии, пользователям необходимо сделать следующее:
1. Остановить скачивание;
2. Удалить старый торрент у себя из клиента (старые серии удалять не надо);
3. Скачать новый торрент и запустить его у себя в клиенте вместо старого, при этом указать клиенту путь в старую папку куда и должно происходить скачивание новых серий. Ваш клиент при этом должен произвести хеширование (проверку) старой папки и будет докачивать только те серии, которых у вас ещё нет. Старые серии при этом не удаляются, а продолжают раздаваться! Eсли вы уже удалили старые серии, то предотвратить повторную закачку старых серий можно, отжав галочку в соответствующих местах при запуске нового торрента.


Добавлена 8 серия.


Трекер:  [ 25-Окт-2018 18:20 ]

  

Скачать .torrent

Размер .torrent файла 26 KB


Размер: 5.02 GB
Хэш (hash) релиза: 97a2e089dfef56b4b0fd825e73736c5158665d7c
Подписка на обновления:

Торренты, похожие на Светлана скачать торрент

Форум Название Автор Размер S L Добавлен
Зарубежные сериалы ·· Объяли мою душу светлые печали / И объяли мою душу их светлые печали (Сабир Назармухамедов) [2007, Узбекистан, Драма, DVD5] Dub (Узбекфильм) Galfimbul 46757683204.35 GB 0 0 1519892867

11:27

1-Мар-18

Документальные фильмы и телепередачи ·· Минута молчания. Светлой памяти павших в борьбе против фашизма (Беларусь) / Хвіліна маўчання. Светлай памяці загінуўшых у барацьбе супраць фашызму [2012, общенациональный ритуал, DVB] Galfimbul 131891200126 MB 0 0 1431247000

11:36

10-Май-15

Зарубежные фильмы 2016-2018 (Новинки зарубежного кино) ·%· Светлый папа / Papa lumi?re (2015) SATRip | Sub Galfimbul 14691440891.37 GB 0 0 1533909008

16:50

10-Авг-18

Зарубежные фильмы до 2016 ·%· Роберта / Roberta (Уильям Э. Сайтер / William A. Seiter) [1935, США, комедия, музыкальный, WEB-DL 1080p] MVO (Светла) + Original Eng + Sub Eng Galfimbul 1200432723011.18 GB 0 0 1532557842

01:30

26-Июл-18

Зарубежные фильмы до 2016 ·%· Любовь и честь / Honor Among Lovers (Дороти Арзнер / Dorothy Arzner) [1931, США, драма, мелодрама, DVD5 (Custom)] DVO (Светла) + Original Eng Galfimbul 42971340804 GB 0 0 1531002623

01:30

8-Июл-18

Спорт ·%· Лев Яшин – номер один (Светлана Крапивина) [2018, Россия, Документальный, биография, HDTVRip] Galfimbul 784160768748 MB 0 0 1530016948

15:42

26-Июн-18

Документальные фильмы и телепередачи ·%· Купец на все времена. Виртуальный музей Сергея Дягилева / Marchand de toutes les saisons: Le musee virtuel de Sergei Diaghilev (Светлана Астрецова) [2017, Россия, документальный, биографический] Galfimbul 406626013388 MB 0 0 1530013021

14:37

26-Июн-18

Документальные фильмы и телепередачи ·%· Лев Яшин – номер один (Светлана Крапивина) [2018, Россия, Документальный, биография, HDTV 1080i] Galfimbul 24031002242.24 GB 0 0 1529904994

08:36

25-Июн-18

Документальные фильмы и телепередачи ·%· Игорь Спасский. Конструктор подводных лодок (Светлана Ивашова) [2013, биографический, военно-морской флот, HDTVRip] Galfimbul 378376192361 MB 0 0 1529786179

23:36

23-Июн-18

Мультфильмы до 2016 ·· Два трамвая (Светлана Андрианова) [2016, Россия, мультфильм, WEBRip-AVC] Galfimbul 6952453066 MB 0 0 1528707692

12:01

11-Июн-18

Спорт ·· Roland Garros 2018/ 1-й круг/ Гарбинье Мугуруза (Испания, 3) — Светлана Кузнецова (Россия)/ Garbine Muguruza - Svetlana Kuznetsova/ Eurosport HD [29.05.18/Теннис/WEB-DL HD/720p/50fps, MKV/H.264/RU/EN] Galfimbul 37280591703.47 GB 0 0 1527635535

02:12

30-Май-18

Спорт ·· WTA Mutua Madrid Open 2018 / 1-й круг / Петра Мартич (Хорватия) — Светлана Кузнецова (Россия) / Petra Martic - Svetlana Kuznetsova [05.05.2018, Теннис, IPTV/576i, TS/MPEG, INT] Galfimbul 17046971441.59 GB 0 0 1525525933

16:12

5-Май-18

Развлекательные телепередачи и шоу ·· Аншлаг. Светлана Рожкова и Игорь Маменко 2018.04.27 [2018, Юмор, HDTVRip720p] Galfimbul 26567471122.47 GB 0 0 1524982328

09:12

29-Апр-18

Развлекательные телепередачи и шоу ·· Аншлаг. Светлана Рожкова и Игорь Маменко 2018.04.27 [2018, Юмор, HDTV 1080i] Galfimbul 85698715247.98 GB 0 0 1524890530

07:42

28-Апр-18

Спорт ·· WTA Premier Indian Wells 2018/ 2-й круг/ Арина Соболенко (Беларусь) — Светлана Кузнецова (Россия, 19)/ Aryna Sabalenka - Svetlana Kuznetsova/ Матч! Игра HD [09.03.18/Теннис/IPTVRip/720p/50fps/MKV/H.264/RU] Galfimbul 20020970271.86 GB 0 0 1520628734

23:52

9-Мар-18

Российские сериалы ·· Женщина желает знать (8 серий из 8) (2008) 2 x DVD5 (Светлана Музыченко) [2008, Мелодрама, DVD5] Galfimbul 87929057288.19 GB 0 0 1519070099

22:54

19-Фев-18

Мультфильмы до 2016 ·· Песнь о тюльпанах (Светлана Муратходжаева) [1981, СССР, мультфильм, WEBRip] Galfimbul 7818585875 MB 0 0 1518782848

15:07

16-Фев-18

Развлекательные телепередачи и шоу ·· Хорошие шутки - 2009-04-19. s05e07 (Сергей Фролов, Карина Азнавурян, Светлана Мастеркова, Артур Ваха - "Убойная лига": Илья Соболев, Игорь Коваленко, Роман Клячкин) [SATRip] Galfimbul 741959680708 MB 0 0 1517539846

05:50

2-Фев-18

Зарубежные фильмы до 2016 ·· Найти Красную Ведьму / Wake of the Red Witch (Эдвард Людвиг / Edward Ludwig) [1948, США, боевик, приключения, BDRemux 1080p] MVO (Светла) + Original Eng Galfimbul 2007853520618.7 GB 0 0 1517299694

11:08

30-Янв-18

Еще никто не оставлял запись к записи скачать торрент Светлана . Будь первым!

!Обратная связь
Weird Stuff | experimental | Business - 612 Words